Категории

tarja скачать торрент flac

 

 

 

 

Уходя с раздачи, ты не даешь скачать этот файл другим пользователям. Помощь в раздаче - стимул к созданию новых торрентов.Tarja - Discography 2004-2015/2007 - My Winter Storm/Disc II/Tarja - My Winter Storm. flac. Скачать .torrent файл (основная ссылка для скачивания файла) Смотреть / Слушать онлайн просмотр (ссылка для просмотра файла через плагин Torrent Stream).Tarja Soile Susanna Cabuli (ne Turunen born August 17, 1977), generally known as TarjaViKa (Искать торренты). Продолжительность: 00:43:50 Формат/Кодек: FLAC Битрейт аудио: lossless.Торрент: Зарегистрирован [ 09-Июн-2016 09:05 (1 год 9 месяцев назад) ]. Скачать. 15 KB. Статус: проверено. Rus-media.org - открытый торрент трекер - скачивайте любые торренты и смотрите фильмы ОНЛАЙН без регистрации и рекламы.Tarja Turunen - Дискография. Формат: MP3, tracks, 192-320kbps Год выпускаBroken Hope - Дискография [Brutal Death Metal 1991-2013] FLAC. Скачать музыку Tarja - The Shadow Self (2016) FLAC через торрент.Загрузил: 31 августа 2016 02:34 Статус: Проверено.

Размер: 440.79 MB [Как скачать?] All Music Audio books Sound clips FLAC Other Movies Movies DVDR Music videos Movie clips TV shows Handheld HD - Movies HD - TV shows 3D Other Windows Mac UNIXGet this torrent PLAY/STREAM TORRENT. (Problems with magnets links are fixed by upgrading your torrent client!) Для вашего удобства мы сделали разделы, торрент фильмы которые можно скачать через торрент, у нас самый большой Игровой форум для геймеров,где находятся все геймеры России и Украины,и не только они.Tarja - Act1 (2CD) (2012) FLAC. woods85. 01.12.2013, 20:32. Скачать торрент файл | download torrent. Список треков (песен, композиций).Больше похожей музыки: Tarja Turunen Luna Park Ride [Bonus Edition]. Исполнитель: Tarja Страна: Finland Название: Henkays Ikuisuudesta Жанр: pop,christmas songs Формат/Кодек: flac Битрейт аудио: lossless.Скачать торрент. Tarja Turunen - Shameless (3:42) 07. Tarja Turunen - House of Wax (Paul McCartney Cover) (5:51) 08. Tarja Turunen - Goldfinger (James Bond Main Theme) (4:15) 09.660 раз(а) [ список скачавших ].

Участники: 4 раздают, 0 качают (4 участников всего). Похожие торренты Скачать торрент Магнет-ссылка. Музыка. Дата добавленияИсполнитель: Tarja Название: Дискография Год: 2004-2015 Жанр: Symphonic metal Страна: Финляндия Продолжительность: 14:27:46 Формат/Кодек: FLAC (tracks, image .cue.log) Битрейт аудио: Lossless. Торрент трекер - здесь вы можете скачать игры, фильмы, музыку и многое другое!Child Is This" PERFORMER "Tarja" INDEX 01 40:28:60 TRACK 12 AUDIO TITLE "We Wish You A Merry Christmas" PERFORMER " Tarja" INDEX 01 45:24:40. Скачать музыку торрентом » Рок / альтернативная музыка » Tarja - The Shadow Self (2016) FLAC.Продолжительность: 01:06:07 Формат/Кодек: FLAC Битрейт аудио: lossless. 01. Innocence (6:04) 02.выпуска: 2011 Жанр: Symphonic Classical Формат: FLAC (image.cue) Битрейт: lossless Log-файлTреклист: 01. Tarja Turunen - Arkihuolesi kaikki heita [03:37] 02. Tarja Turunen - Ave Maria op.Аплоадер: Админ, дата: 25-04-2012, 06:44, торрент скачан: 359 раз. Понравилась раздача?Live Лейбл: Soyuz Год выпуска: 2011 Жанр: Symphonic Classical Формат: FLAC (image.cue) Битрейт: lossless Log-файлTреклист: 01. Tarja Turunen - Arkihuolesi kaikki heita [03:37] 02. Tarja Turunen - Ave Maria op.Главное правило торрент-трекера: скачал сам, останься на раздаче. Торрент: Скачать Tarja-TheBrightestVoid2016FLAC.torrent.Продолжительность: 00:43:50 Формат/Кодек: FLAC Битрейт аудио: lossless. Лицензия Официальный сайт. ЛЕЙБЛ: Universal Music, Ear Music. ПРОДОЛЖИТЕЛЬНОСТЬ: 04:15:54. ФОРМАТ: FLAC (tracks/image.cue) 24 bit, 192 kHz.Скачать торрент вы можете в начале страницы. Найти другие альбомы и музыку Tarja (Tarja Turunen). Обмен ссылками. по трекеру по форуму по торрентам в google. Регистрация . Имя: Пароль: Запомнить.Страна: Финляндия. Продолжительность: 5:29:45. Формат/Кодек: Flac / Ape. Битрейт аудио: lossless. Официальный сайт. Tarja - The Brightest Void 2016. Rock. Tracklist : 01 No Bitter End 02 Your Heaven and Your Hell (Feat.Flac 269 MB. Download. Music. The Professionals - What In The World 2017 FLAC Lossless The Professionals - What In The World (2017). Tarja Turunen - Goldfinger (James Bond Main Theme) (4:15) 09. Within Temptation Tarja Turunen - Paradise (What About Us?) (New Mix) (5:18). Скачать торрент (без регистрации). Скачать Tarja-LeftInTheDark2014FLAC.torrent.Рутор.org и наши серверы не располагают какими-либо цифровыми копиями аудио-визуальных произведений, мы храним только информацию о них и торрент-файлы, загруженными пользователями для обмена. Название: The Shadow Self Исполнитель: Tarja Год: 2016 Жанр: Symphonic rock, symphonic metal Продолжительность: 01:06:07 Формат/Кодек: FLAC БитрейтСкачать бесплатно через торрент Фильмы, Сериалы, Игры, Музыку, Софт и многое другое на KRUTOR.NET open the torrent tracker. Музыка, Скачать торрент, Самая яркая звезда финской рок-сцены, бывшая вокалистка группы Nightwish, певица Тарья ТуруненИсполнитель: Tarja Turunen Год: 2017 Жанр: Symphonic Metal, Gothic Metal Продолжительность: 00:49:25 Формат/Кодек: FLAC Битрейт аудио: Lossless. Исполнитель: Tarja Название: Дискография Год: 2004-2015 Жанр: Symphonic metal Страна: Финляндия. Продолжительность: 14:27:46 Формат/Кодек: FLAC (tracks, image .cue.log) Битрейт аудио: Lossless.Размер. 5.51 GB (5913595682 Bytes) Скачать торрент. Добавить в. закладки. На этой странице показаны все возможные торренты для tarja turunen flac. Вы можете скачать абсолютно бесплатно tarja turunen flac через магнет ссылку, аналог торрента без загрузки torrent файла. 25-Дек-17 13:08. Скачан: 57 раз. Размер: 336 MB |. Поблагодарили: Скачать (Acoustic, Vocal, Instrumental) Tarja Turunen - From Spirits And Ghosts (Score For A Dark Christmas) - 2017 [ FLAC, image .cue, lossless] торрент. Rutorka.net - торрент-трекер. Бесплатно и без регистрации скачать torrent игры, фильмы, музыку, программы, сериалы, торент.Tarja - Дискография (2004-2015) FLAC. Список форумов » МУЗЫКА и КЛИПЫ » Lossless » Дискографии (Зарубежные). Скачать Tarja Turunen. Торрент группа. Описание.Аудио: FLAC, lossless Продолжительность: 01:01:19. Скачать TarjaTurunen-TheBrightest.torrent.Tarja Turunen - Ave Maria - En Plein Air (2015) [FLAC|image.cue] скачать через торрент бесплатно. TRACK 02 AUDIO TITLE "Until My Last Breath" PERFORMER "Tarja" INDEX 01 00:00:00 FILE "03 - Tarja - I Feel Immortal.flac" WAVE TRACK 03 AUDIO TITLE "I Feel Immortal" PERFORMERВернуться к началу. 1 сообщение Страница 1 из 1. Похожие торренты. Ответы. Просмотры. С нашим зеркалом вы будете всегда в курсе новых релизов rutor org и крайне быстро сможете их скачать через торрент.Исполнитель: Tarja Название: Дискография Год: 2004-2015 Жанр: Symphonic metal Страна: Финляндия. Продолжительность: 14:27:46 Формат/Кодек: FLAC (tracks Скачать Tarja-TheShadowSelf2016FLAC.torrent Как тут качать?Рутор.org и наши серверы не располагают какими-либо цифровыми копиями аудио-визуальных произведений, мы храним только информацию о них и торрент-файлы, загруженными пользователями для Название: From Spirits And Ghosts Исполнитель: Tarja Turunen Год: 2017 Жанр: Symphonic Metal, Gothic Metal Продолжительность: 00:49:25 Формат/Кодек: FLAC Битрейт аудио: Lossless.1. Качаем UTorrent версии 2.0 и выше 2. После установки, жмем на ссылку Скачать торрент. Крупнейший Нижегородский торрент трекер - скачивайте любые торренты и смотрите фильмы ОНЛАЙН без регистрации и рекламы. На торрент трекере бесплатно и без регистрации вы сможите скачать любые релизы, и посмотреть ОНЛАЙН как новинки кино, так и старые Торрент: Скачать Tarja-TheShadowSelf2016FLAC.torrent.

Magnet LinkПродолжительность: 01:06:07 Формат/Кодек: FLAC Битрейт аудио: lossless. Лицензия Послушать Официальный сайт. Artist: Tarja Turunen Title Of Album: Discography Release Date: 2004-2017 Location: Finland Label: ---- Genre: Symphonic Metal / Classical Crossover Quality: FLAC | lossless (image/tracks.cue) Length: n/a minКаждый альбом можно скачать отдельно Each album can be downloaded separately. Скачать Tarja-LeftInTheDark2014.torrent.The Best Of Lounge - Collection (2007-2013) FLAC скачать через торрент ( скачиваний: 6). Сборники - Коллекция Союз (1996-2005) MP3 от MediaClub (скачиваний: 6). Tarja Turunen - O Tannenbaum (3:38) 08. Tarja Turunen - Have Yourself A Merry Little Christmas (3:40) 09.All rights reserved. FILE: 12 We Wish You a Merry Christmas.flac Size: 25718872 HashОткрыть топик Скачать .torrent. Похожие темы. Форум. Тема. Автор. Торрент. Формат: FLAC, (image .cue), lossless Год выпуска: 2007 Страна: Finland Жанр: Symphonic Metal Продолжительность: 01: 15: 27.Nightwish Tarja Turunen - Never Together скачать через торрент бесплатно. торрент трекер » Музыка » Tarja - The Brightest Void (2016) FLAC.Продолжительность: 00:43:50 Формат/Кодек: FLAC Битрейт аудио: lossless.Lies Beneath (2010) [FLAC (Image.Cue) Lossless] с торрент трекера Underverse.me бесплатно, на высокой скорости и без ограничений любым bit- torrent клиентом.Отчёт EAC об извлечении, выполненном 26. сентября 2010, 11:25. Tarja / What Lies Beneath. Дисковод: NEC DVDRW Отчёт EAC об извлечении, выполненном 26. сентября 2010, 11:25. Tarja / What Lies Beneath.FLAC (imagecue), AccurateRip (в базу данных диск пока не попал), TestCopy. Tarja - From Spirits And Ghosts (Score For A Dark Christmas) Тип записи: Declipped, Remaster проверено. Скачан: 0 раз. Размер: 498 MB. [Declipped, Remaster] (Symphonic Rock) Tarja(Score For A Dark Christmas) 2017 (2018) [24/44.1 Flac, Tracks] скачать торрент бесплатно и без Торрент скачать бесплатно фильмы, сериалы, игры, музыка, книги, программы, КПК » Музыка торрент скачать » (Symphonic Classical ) Tarja TurunenЖанр: Symphonic Classical Год выпуска диска: 2011 Издатель (лейбл): Soyuz Производитель диска: Finland Аудио кодек: FLAC Тип рипа tparser.org торрент поисковик по популярным торрент трекерам. Находить и скачивать новинки кино в HDRip и BDRip качестве через tparser намного проще!Начните скачивать торрент tarja flac прямо сейчас! Раздают: 45 Качают: 13. Скачать торрент.Исполнитель: Tarja Название: Дискография Год: 2004-2015 Жанр: Symphonic metal Страна: Финляндия Продолжительность: 14:27:46 Формат/Кодек: FLAC (tracks, image .cue.log) Битрейт аудио: Lossless Официальный сайт. Продолжительность: 15:13:29 Формат/Кодек: FLAC (tracks, image .cue.log) Битрейт аудио: Lossless.1. Скачать и установить торрент-клиент (Torrent, BitTorrent, Azureus и др) на компьютер. 2. Скачать торрент Tarja - Дискография (2004-2015) FLAC 3. Добавить торрент на Вы можете воспользоваться поиском торрент файлов, что бы скачать музыку Tarja Turunen - Act I [2CD] (2012) в формате Flac, Ape, Wavpack, WMA Lossless. Если поиск не удался, то попробуйте изменить или сократить запрос. Скачать фильм Tarja Turunen - From Spirits And Ghosts через торрент бесплантно в хорошем качестве Треклист O Come, O Come, Emmanuel Together We Three Kings Deck The Halls Pie Jesu Amazing Grace O Tannenbaum08. Скачать Tarja-Discography2004-2015.torrent Как тут качать? Добавить rutor.org в поисковую строку.Продолжительность: 14:27:46 Формат/Кодек: FLAC (tracks, image .cue.log) Битрейт аудио: Lossless.

Популярное: