Категории

скачать григорий лепс lossless

 

 

 

 

Скачать Григорий Лепс. Торрент группа. Описание.Н.Власова) 21. Выбрось из головы. Аудио: FLAC, lossless Продолжительность: 01:17:44. Скачали файл? Поставьте лайк! Не дайте торренту умереть: Скачать Шансон Григорий Лепс Дуэты 2013 FLAC lossless. Исполнитель: Григорий Лепс Альбом: Пенсне (переиздание) Страна: Россия Тип альбома: Студийный "Мистерия Рекордс" Год выпуска: 2011 Жанр: Шансон Формат:FLAC (tracks.cue) Битрейт: lossless Продолжительность: 00:58:16. Исполнитель: Григорий Лепс Альбом: Пенсне Год выхода: 2011 Размер альбома: 363,40 Мб Формат: flac (tracks) Направление: Шансон, Pop, Pop Rock.Григорий Лепс Александр Розенбаум — 2011 Берега чистого братства ( Lossless) Исполнитель: Григорий Лепс Э нее, давай-ка Lossless! Игры хочу! Геймер я! Софтинку скачать надо!TRACK 02 AUDIO. TITLE Вавилон. PERFORMER "Григорий Лепс". Index 01 04:24:51. Track 03 audio. TITLE "Клуб одиноких сердец подполковника Пеппера". Страна: Россия Жанр: Шансон Год выпуска: 2011 Формат: FLAC (tracks) Битрейт аудио: lossless Продолжительность: 48.35.Птица молодость моя (дуэт с Д. Гурцкая) 4.

26. grigoriy-leps-pensne.torrent. Скачан Григорий Лепс / Лучшие песни. Дисковод: TSSTсоrрСDDVDW TS-L633J Аdарtеr: 1 D: 0.Скачать бесплатно [605.4 mb].Формат: FLAC, (image .cue), lossless Год выпуска: 2014 Страна: Россия Жанр: Шансон Продолжительность: 00:53:08 Описание: 01. КАЧЕСТВО: Lossless. РЕЙТИНГ: 10 / 5. ГОЛОСОВАТЬСкачать торрент вы можете в начале страницы. Найти другие альбомы и музыку Григорий Лепс. Музыка по стилям и направлениям.

Форум Lossless.Григорий Лепс (настоящее имя Григорий Викторович Лепсверидзе) Его любят за мощный голос и редкую харизму. Он кумир женщин и сильных духом мужчин. Песня: Лабиринт Рип сделан с Lossless Музыкант: Григорий Лепс в mp3 формат.Скачать. Другие песни исполнителя Григорий Лепс. Исполнитель: Григорий Лепс Альбом: Второй. Песни Владимира Высоцкого Год выпуска: 2007 Формат: FLAC (image.cue) Битрейт: lossless Размер: 257 МБ.Скачать Григорий Лепс. Григорий Лепс - cd ( ) Год Жанр Шансон Продолжительность Кодек flac Битрейт lossless Страна-производитель диска Россия Издатель (лейбл) Никитин Номер по каталогу в каждом альбоме Наличие скановСкачать (бесплатно и на максимальной скорости)! Страница 1 из 1. На торрент трекере бесплатно и без регистрации вы сможите скачать любые релизы, и посмотреть ОНЛАЙН как новинки киноГригорий Лепс - Гангстер 1. Формат: FLAC, (image .cue), lossless Год выпуска: 2014 Страна: Россия Жанр: Шансон Продолжительность: 01:03:25. Торрент скачать бесплатно фильмы, сериалы, игры, музыка, книги, программы, КПК » Музыка торрент скачать » (шансон) Григорий Лепс - Золотая коллекция. Лучшее (2 CD) - 2009, FLAC (image.cue), lossless торрент скачать бесплатно. григорий лепс, григорий лепс скачать, скачать песни григория лепса, григорий лепс самый лучший день, шансон, Lossless.Исполнитель: Григорий Лепс Альбом: Полный вперёд! Исполнитель: Григорий Лепс Страна: Россия Альбом: GRAND collection Жанр: Шансон Год выхода: 2014 Формат: mp3 | 320 kbps | Lossless Размер: 191,35 Mb | 579,52 Mb. Треклист: 01. Водопадом (4:21) 02. Натали (4:48) 03. Рюмка водки на столе (4:19) 04. Ну и что? (5:38) 05. Исполнитель: Григорий Лепс Страна: Россия Альбом: Полный вперёд Тип альбома: Студийный Год выпуска: 2012 Жанр: Шансон Аудиокодек: FLAC Тип рипа: image.cue Битрейт: lossless Продолжительность: 00:44:07. Бесплатно и без регистрации скачать torrent игры, фильмы, музыку, программы, сериалы, торент.Кодек: FLAC Битрейт: Lossless Тип рипа: tracks .cue Продолжительность: 01:38:57. Об альбоме: В этой работе Григорий Лепс перепел и перезаписал песни, которые в разные (Pop-Rock, Chanson) [CD] Григорий Лепс - ТыЧегоТакойСерьёзный [2 CD] 2017, APE (image .cue) lossless [Ты Чего Такой Серьёзный].Начните скачивать торрент Григорий Лепс lossless прямо сейчас! Тимати)" PERFORMER "Григорий Лепс " INDEX 01 41:26:41 TRACK 13 AUDIO TITLE "Зеркала ( feat.Хотите скачать бесплатно? Зарегистрируйтесь на сайте (ссылка на регистрацию).Начиная со старых Начиная с новых. Главная » Music Lossless » Russian » Сhanson. Размер | Size: MB Григорий Лепс: все альбомы скачать торрент.Григорий Лепс - АпгрейдUpgrade 2 CD смотреть онлайн видеоСкачать музыку, клипы, концерты бесплатно через торрент без Григорий Лепс - фаворитные песни (2016) FLAC Год: 2016 Жанр: Шансон Продолжительность: 01:19:50 Формат/Кодек: FLAC Битрейт аудио: Lossless.Сборник - супер популярный летний русский (2016) mp3 скачать бесплатно. Скачать grigoriy-leps-diskografiya-1995-2013-flac.torrent U Магнитная ссылка Размер: 15.36Формат/Кодек: FLAC (trackscuelog) Битрейт аудио: Lossless Продолжительность: 35:12:38.Песня Императора. 2011 - Григорий Лепс и Александр Розенбаум - Берега чистого братства 01. Скачать через торрент музыкальный сборник "Григорий Лепс - 100 лучших песен [6CD]" FLAC.Больше похожей музыки: 2014, Lossless, Григорий Лепс, POP. КАЧЕСТВО: Lossless. Оф сайт: www.grigoryleps.ru. РЕЙТИНГ: 10 / 7.Скачать: прямая ссылка на торрент. Описание альбома. 01. Григорий Лепс - Научись летать 02. Продолжительность: 01:19:50 Формат/Кодек: FLAC Битрейт аудио: Lossless. Трек-лист.Мы предоставляем вам возможность скачать Григорий Лепс - Лучшие песни (2016) FLAC торрент, минуя процесс регистрации. (Chanson)Григорий Лепс - Лучшие песни - 2016 [FLAC, Imagecue, lossless]. Офлайн.Тимати)" PERFORMER "Григорий Лепс " INDEX 01 41:26:41 TRACK 13 AUDIO TITLE "Зеркала ( feat.Скачать бесплатно и на максимальной скорости! Как скачивать? Сейчас вы сможете скачать Григорий Лепс - Пенсне (2011) Lossless бесплатно и без регистрации. После скачивания не забудьте оставить коментарий). Скачать .torrent файл (основная ссылка для скачивания файла) Смотреть / Слушать онлайн просмотр (ссылка дляКодек: FLAC Битрейт: Lossless Тип рипа: image .cue.Тимати)" PERFORMER "Григорий Лепс " INDEX 01 41:26:41 TRACK 13 AUDIO TITLE "Зеркала ( feat. Год: 2017 Жанр: Поп-рок Страна: Россия Лейбл: Nikitin Music Group Продолжительность: 01:18:38 Формат/Кодек: FLAC (tracks) Битрейт аудио: Lossless.Наш сайт предлагает Вам скачать Альбом Григорий Лепс - ТыЧегоТакойСерьёзный [2CD] (2017) FLAC бесплатно и с хорошим Скачать фильм через торрент бесплантно в хорошем качестве Трэклист Мне одиноко (3:52) Я поднимаю руки (3:50) Уходи по-английски ( feat. А.Лорак) (3:33) Я нравлюсь женщинам ( . Поп рок шансон Григорий Лепс ТыЧегоТакойСерьёзный WEB 2017 APE Lossless.Скачать Торрент [12,38 Kb] (cкачиваний: 161). Поделись, не жлобись! )) Есть жалоба? Григорий Лепс и его друзья (2015.05.01) SATRip скачать через торрент бесплатно.Лучшее для лучших (2014) [FLAC|Lossless]<Шансон> скачать через торрент бесплатно. Достояние РЕспублики. Lossless Григорий Лепс - Лучшее (2012) FLAC (image.cue) music download. Название: Лучшие песни Исполнитель: Григорий Лепс Год: 2016 Жанр: Шансон. Продолжительность: 01:19:50 Формат/Кодек: FLAC Битрейт аудио: Lossless. -Григорий Лепс Лучшие песни- Жанр: шансон Носитель: CD Страна-производитель диска (релиза): РоссияОткрыть топик Скачать .torrent. Похожие темы. Форум. Отечественный шансон (lossless). (Шансон) [CD] Анатолий Полотно - Русская судьба - 2018, FLAC Не забудьте написать отзыв о сайте. Попав на эту страницу вы, скорее всего, хотите скачать файл Скачать бесплатно Григорий Лепс - Пенсне (2011) Lossless бесплатно. Надеемся, это у вас получится. Исполнитель: Григорий Лепс Альбом: Полный вперёд! Год выпуска: 2012 Страна: Россия Лейбл: Никитин Жанр: Шансон Формат: FLAC | lossless (image.cue) Время звуч.: 44:07 мин К-во треков: 11 Размер архива: 343 МБ (5) Веб-сайт: Оф. Студийная музыка в формате FLAC lossless DTS 5.1 высокого качества. Скачать студийную музыку DTS.Название: Лучшие песни Исполнитель: Григорий Лепс Год: 2016 Жанр: Шансон Продолжительность: 01:19:50 Формат/Кодек: FLAC Битрейт аудио: Lossless.Продолжительность: 01:19:50 Формат/Кодек: FLAC Битрейт аудио: Lossless Григорий Лепс - Лучшие песниСкачать торрент grigoriy-leps-luchshie-pesni.torrent [12,35 Kb] ( cкачиваний: 3553). загрузкаГригорий Лепс - MP3 Play. Музыкальная коллекция (2013) MP3. Григорий Лепс - Пенсне (2011). Год: 2011 Жанр: Шансон Продолжительность: 00:48:35 Label: Мистерия Рекордс Catalog: MZ 498-2/9. Кодек: FLAC Битрейт: Lossless. Скачать .torrent файл (основная ссылка для скачивания файла) Смотреть / Слушать онлайн просмотр (ссылка дляКодек: FLAC Битрейт: Lossless Тип рипа: image .cue.Тимати)" PERFORMER "Григорий Лепс " INDEX 01 41:26:41 TRACK 13 AUDIO TITLE "Зеркала ( feat. Альбомы и сборники торрент » Альбомы » Русские альбомы » Григорий Лепс - The Best [Official Compilation].На тот случай, если Вы не знакомы с принципами скачивания через торрент, мы приготовили краткую инструкцию о том, как скачивать сборники музыки и отдельные песни Название: Лучшие песни Исполнитель: Григорий Лепс Год: 2016 Жанр: Шансон. Продолжительность: 01:19:50 Формат/Кодек: FLAC Битрейт аудио: Lossless. Скачать музыку из альбома Григорий Лепс - Гангстер 1 (2014) lossless бесплатно. Скачать .torrent файл (основная ссылка для скачивания файла) Смотреть / Слушать онлайн просмотр (ссылка дляКодек: FLAC Битрейт: Lossless Тип рипа: image .cue.Тимати)" PERFORMER "Григорий Лепс " INDEX 01 41:26:41 TRACK 13 AUDIO TITLE "Зеркала ( feat. Торрент трекер - здесь вы можете скачать игры, фильмы, музыку и многое другое!Исполнитель: Григорий Лепс. Альбом: Лучшие песни. Год: 2016. Формат: FLAC. Битрейт: lossless. Скачать .torrent файл (основная ссылка для скачивания файла) СмотретьЖанр: Шансон Продолжительность: 01:19:50. Кодек: FLAC Битрейт: Lossless Тип рипа: image .cue.Тимати)" PERFORMER "Григорий Лепс " INDEX 01 41:26:41 TRACK 13 AUDIO TITLE "Зеркала ( feat. Performer: Григорий Лепс Album: Гангстер 1 Label: Nikitin. Made in RU. Catalog : UMGCD14-447 Style: Pop, Rock, Chanson Released: 2014 Format: FLAC (image .cue) Bitrate: lossless Covers: in arhive Amount of tracks: 16 Size RAR: 486.7 mb. Performer: Григорий Лепс Album: Парус - Песни Владимира Высоцкого Label: Мистерия Звука.

Made in RU. Catalog : MZ 199-2 Style: Chanson Year: 2004 Format: FLAC (image .cue) Bitrate: lossless Covers: full (600 DPI) Amount of tracks: 13 Size ZIP: 361 mb Upload

Популярное: